周处除三害[杜比视界版本][国语音轨/中文字幕].The.Pig.the.Snake.and.the.Pigeon.2023.V2.2160p.WEB-DL.H 2023 中国台湾 动作 WEB-4K

悠悠电影 12天前 27

完整标题:周处除三害[杜比视界版本][国语音轨/中文字幕].The.Pig.the.Snake.and.the.Pigeon.2023.V2.2160p.WEB-DL.H265.10bit.DV.DTS.5.1-GPTHD 20.83GB



◎标  题 周处除三害
◎译  名 The Pig / the Snake / and the Pigeon
◎片  名 周處除三害
◎年  代 2023
◎产  地 中国台湾
◎类  别 动作 / 犯罪
◎语  言 汉语普通话 / 闽南语 / 粤语
◎上映日期 2024-03-01(中国大陆) / 2023-10-06(中国台湾)
◎IMDb评分 7.3/10 (5192人评价)
◎IMDb链接 https://www.imdb.com/title/tt29319990/
◎豆瓣评分 8.1/10 (917478人评价)
◎豆瓣链接 https://movie.douban.com/subject/36151692/
◎片  长 134分钟
◎导  演 黄精甫 Ching-Po Wong
◎编  剧 黄精甫 Ching-Po Wong
◎演  员 阮经天 Ethan Juan
      袁富华 Fu-wah Yuen
      陈以文 Yiwen Chen
      王净 Gingle Wang
      谢琼煖 Chiung-Hsuan Hsieh
      李李仁 Liren Li
      刘子铨 Tzu-Chuan Liu
      曾珮瑜 Peggy Tseng
      陈秉佑
      游安顺 An-shun Yu
      郑有杰 Yu-Chieh Cheng
      盛鉴 Chien Sheng
      吴奕蓉 Yi-Jung Wu
      黄迪扬 Di-Yang Huang
      曾向镇 Benjamin Tsang
      沈威年 Nelson
      杨迦恩 Chia-En Yang
      曾皓泽 Haoze Zeng
      郑永岳 Ark Zheng
      张启乐 Ben Cheung
      王又正 Yu-Cheng Wang
      罗能华
      许莉廷 Li-Ting Hsu
      苏耀庭 Su Yao Ting
      刘昕昊 Liu Hsin Hao
      洪菁敏 Hung Ching-Min
      李明哲 Li Ming-Che

◎简  介
    通缉犯陈桂林(阮经天 饰)在逃亡藏匿中失去最后一个亲人,同时得知自己只有不到三个月的生命。万念俱灰的他原打算投案自首,可是当发现他在三大通缉犯中仅仅排名第三时,内心突然躁动起来。在此之后,他决定仿效古时候周处除三害的故事,临终之际要在江湖上留下他的传奇名号。通过地下医生张贵卿(谢琼煖 饰),陈桂林找到了分别排名第二和第一的香港仔(袁富华 饰)和牛头的线索,随后踏上征途。贪嗔痴,三毒熬煎,红尘混沌之人,被业障缠绕,永远无法跳脱因果轮回……   电影引用的“周处除三害”典故,见于《晋书·周处传》和《世说新语》。

点击图片可查看大图

软字幕无法在截图上展现,HDR版本/杜比视界版本截图会出现颜色异常,请使用支持的设备播放!

##### MediaInfo ######
General
Complete name : 周处除三害.The.Pig.the.Snake.and.the.Pigeon.2023.V2.2160p.WEB-DL.H265.10bit.DV.DTS.5.1-GPTHD.mp4
Duration : 2 h 13 min
Overall bit rate mode : Variable
Overall bit rate : 22.3 Mb/s

Video
ID : 1
Format : HEVC
Format/Info : High Efficiency Video Coding
Format profile : Main [email protected]@Main
HDR format : Dolby Vision, Version 1.0, dvhe.05.06, BL+RPU
Codec ID : dvhe
Codec ID/Info : High Efficiency Video Coding with Dolby Vision
Duration : 2 h 13 min
Bit rate : 20.1 Mb/s
Width : 3 840 pixels
Height : 1 608 pixels
Display aspect ratio : 2.40:1
Frame rate mode : Constant
Frame rate : 24.000 FPS
Color space : YUV
Chroma subsampling : 4:2:0
Bit depth : 10 bits
Bits/(Pixel*Frame) : 0.136
Stream size : 18.8 GiB (90%)
Default : Yes
Alternate group : 1
Encoded date : UTC 2024-06-09 10:00:22
Tagged date : UTC 2024-06-11 01:05:03
Color range : Full
mdhd_Duration : 8020625
Codec configuration box : hvcC+dvcC

Audio #1
ID : 2
Format : DTS
Format/Info : Digital Theater Systems
Codec ID : mp4a-A9
Duration : 2 h 13 min
Bit rate mode : Constant
Bit rate : 768 kb/s
Maximum bit rate : 778 kb/s / 768 kb/s
Channel(s) : 6 channels
Channel layout : C L R Ls Rs LFE
Sampling rate : 48.0 kHz
Frame rate : 93.750 FPS (512 SPF)
Bit depth : 24 bits
Compression mode : Lossy
Stream size : 734 MiB (3%)
Title : 国语·DTS环绕声@768kbps
Language : Chinese
Default : Yes
Alternate group : 1
Tagged date : UTC 2024-06-11 01:05:03

Audio #2
ID : 3
Format : E-AC-3
Format/Info : Enhanced AC-3
Commercial name : Dolby Digital Plus
Codec ID : ec-3
Duration : 2 h 13 min
Bit rate mode : Constant
Bit rate : 384 kb/s
Maximum bit rate : 406 kb/s
Channel(s) : 6 channels
Channel layout : L R C LFE Ls Rs
Sampling rate : 48.0 kHz
Frame rate : 31.250 FPS (1536 SPF)
Compression mode : Lossy
Stream size : 367 MiB (2%)
Title : 国语·杜比环绕声@384kbps
Language : Chinese
Service kind : Complete Main
Default : Yes
Alternate group : 1
Tagged date : UTC 2024-06-11 01:05:03

Audio #3
ID : 4
Format : E-AC-3
Format/Info : Enhanced AC-3
Commercial name : Dolby Digital Plus
Codec ID : ec-3
Duration : 2 h 13 min
Bit rate mode : Constant
Bit rate : 256 kb/s
Maximum bit rate : 270 kb/s
Channel(s) : 6 channels
Channel layout : L R C LFE Ls Rs
Sampling rate : 48.0 kHz
Frame rate : 31.250 FPS (1536 SPF)
Compression mode : Lossy
Stream size : 245 MiB (1%)
Title : 国语·杜比环绕声@256kbps
Language : Chinese
Service kind : Complete Main
Default : Yes
Alternate group : 1
Tagged date : UTC 2024-06-11 01:05:03

Audio #4
ID : 5
Format : AAC LC
Format/Info : Advanced Audio Codec Low Complexity
Codec ID : mp4a-40-2
Duration : 2 h 13 min
Bit rate mode : Variable
Bit rate : 256 kb/s
Maximum bit rate : 267 kb/s / 258 kb/s
Channel(s) : 6 channels
Channel layout : C L R Ls Rs LFE
Sampling rate : 44.1 kHz
Frame rate : 43.066 FPS (1024 SPF)
Compression mode : Lossy
Stream size : 245 MiB (1%)
Title : 国语·环绕声@256kbps
Language : Chinese
Default : Yes
Alternate group : 1
Tagged date : UTC 2024-06-11 01:05:03

Audio #5
ID : 6
Format : E-AC-3
Format/Info : Enhanced AC-3
Commercial name : Dolby Digital Plus
Codec ID : ec-3
Duration : 2 h 13 min
Bit rate mode : Constant
Bit rate : 256 kb/s
Maximum bit rate : 270 kb/s
Channel(s) : 2 channels
Channel layout : L R
Sampling rate : 48.0 kHz
Frame rate : 31.250 FPS (1536 SPF)
Compression mode : Lossy
Stream size : 245 MiB (1%)
Title : 国语·杜比音效@256kbps
Language : Chinese
Service kind : Complete Main
Default : Yes
Alternate group : 1
Tagged date : UTC 2024-06-11 01:05:03

Audio #6
ID : 7
Format : AAC LC
Format/Info : Advanced Audio Codec Low Complexity
Codec ID : mp4a-40-2
Duration : 2 h 13 min
Bit rate mode : Variable
Bit rate : 256 kb/s
Maximum bit rate : 267 kb/s / 258 kb/s
Channel(s) : 2 channels
Channel layout : L R
Sampling rate : 44.1 kHz
Frame rate : 43.066 FPS (1024 SPF)
Compression mode : Lossy
Stream size : 245 MiB (1%)
Title : 国语·立体声@256kbps
Language : Chinese
Default : Yes
Alternate group : 1
Tagged date : UTC 2024-06-11 01:05:03


部分资源为软字幕,移动端推荐播放器:MxPlayer,nPlayer,infuse ,其他播放器请自行尝试。

部分资源为软字幕,电脑端推荐播放器:PotPlayer,完美解码,KMPLAYER,其他播放器请自行尝试。

下载端推荐纯BT下载软件:qBittorrent,Bitcomet,uTorrent ,其他下载软件请自行尝试。不支持吸血迅雷。


标签:
pFDScB6.jpg
最新回复 (0)
返回
发新帖

ヾ(・ω・`。)快来领券!