哥斯拉大战金刚2:帝国崛起[国英多音轨/中文字幕/特效字幕].2024.V1.BluRay.1080p.AAC2.0.x264-DreamHD 3.47GB 2024 欧美 动作 BD-1080P

悠悠电影 12天前 33

完整标题:哥斯拉大战金刚2:帝国崛起[国英多音轨/中文字幕/特效字幕].2024.V1.BluRay.1080p.AAC2.0.x264-DreamHD 3.47GB



◎标  题 哥斯拉大战金刚2:帝国崛起
◎译  名 哥斯拉×金刚:新帝国(港) / 哥吉拉与金刚:新帝国(台) / 哥斯拉大战金刚2 / 金刚之子 / Godzilla vs. Kong 2 / Godzilla and Kong / Godzilla vs Kong: The New Empire / ゴジラxコング 新たなる帝国
◎片  名 Godzilla x Kong: The New Empire
◎年  代 2024
◎产  地 美国
◎类  别 动作 / 科幻 / 冒险
◎语  言 英语 / 美国手语
◎上映日期 2024-03-29(美国 / 中国大陆) / 2024-03-27(中国台湾)
◎IMDb评分 6.2/10 (69933人评价)
◎IMDb链接 https://www.imdb.com/title/tt14539740/
◎豆瓣评分 6.7/10 (149205人评价)
◎豆瓣链接 https://movie.douban.com/subject/35453251/
◎片  长 115分钟
◎导  演 亚当·温加德 Adam Wingard
◎编  剧 特里·鲁西奥 Terry Rossio
      西蒙·巴雷特 Simon Barrett
      杰瑞米·斯莱特 Jeremy Slater
      亚当·温加德 Adam Wingard
◎演  员 丽贝卡·豪尔 Rebecca Hall
      布莱恩·泰里·亨利 Brian Tyree Henry
      丹·史蒂文斯 Dan Stevens
      凯莉·霍特尔 Kaylee Hottle
      亚历克斯·费恩斯 Alex Ferns
      陈法拉 Fala Chen
      瑞切尔·豪斯 Rachel House
      朗·斯迈克 Ron Smyck
      尚特尔·贾米森 Chantelle Jamieson
      格雷格·哈顿 Greg Hatton
      凯文·科普兰 Kevin Copeland
      泰丝·多布雷 Tess Dobré
      蒂姆·卡罗尔 Tim Carroll
      安东尼·布兰登·黄 Anthony Brandon Wong
      索菲亚·恩博森-贝恩 Sophia Emberson-Bain
      奇卡·伊科维 Chika Ikogwe
      文森特·B·戈尔斯 Vincent B. Gorce
      叶叶·周 Yeye Zhou
      贾马利亚·欧斯曼 Jamaliah Othman
      尼克·劳勒 Nick Lawler
      梅西·康沃尔 Mercy Cornwall
      卡西·莱利 Cassie Riley
      乔迪·坎贝尔 Jordy Campbell
      妮可拉·克里萨 Nicola Crisa
      Stephanie Puggioni
      Angie Adler-Koops
      Olivia Simatovic
      Drew Matthews
      Kyle Clark
      Alex Time
      Jacob Hohua
      Riley McCarthy

◎简  介
    继上一次的怪兽高燃对战之后,金刚和哥斯拉将再度联手对抗一个潜伏在世界中的巨大威胁,并逐步探索这些巨兽们的起源以及骷髅岛等地的奥秘。同时,上古之战的面纱也将会被揭晓,而正是那场战斗创造出了这些超凡的生物,并深刻影响了人类世界的命运。

点击图片可查看大图

软字幕无法在截图上展现,HDR版本/杜比视界版本截图会出现颜色异常,请使用支持的设备播放!

##### MediaInfo ######
General
Complete name : Godzilla X Kong The New Empire 2024 V1 BluRay 1080p iPad AAC2.0 x264-DreamHD.mp4
Duration : 1 h 54 min
Overall bit rate : 4 328 kb/s

Video
ID : 1
Format : AVC
Format/Info : Advanced Video Codec
Format profile : [email protected]
Format settings : 5 Ref Frames
Format settings, CABAC : No
Format settings, Reference frames : 5 frames
Codec ID : avc1
Codec ID/Info : Advanced Video Coding
Duration : 1 h 54 min
Bit rate : 4 000 kb/s
Maximum bit rate : 3 931 kb/s
Width : 1 920 pixels
Height : 1 080 pixels
Display aspect ratio : 16:9
Frame rate mode : Variable
Frame rate : 23.976 (24000/1001) FPS
Minimum frame rate : 23.974 FPS
Maximum frame rate : 23.981 FPS
Color space : YUV
Chroma subsampling : 4:2:0
Bit depth : 8 bits
Scan type : Progressive
Bits/(Pixel*Frame) : 0.080
Stream size : 3.15 GiB (91%)
Writing library : x264 core 164 r3107 a8b68ebf
Encoding settings : cabac=0 / ref=5 / deblock=0:0:0 / analyse=0x1:0x111 / me=hex / subme=8 / psy=1 / psy_rd=1.00:0.00 / mixed_ref=1 / me_range=16 / chroma_me=1 / trellis=2 / 8x8dct=0 / cqm=0 / deadzone=21,11 / fast_pskip=1 / chroma_qp_offset=-2 / threads=24 / lookahead_threads=4 / sliced_threads=0 / nr=0 / decimate=1 / interlaced=0 / bluray_compat=0 / constrained_intra=0 / bframes=3 / b_pyramid=2 / b_adapt=1 / b_bias=0 / direct=3 / weightb=0 / open_gop=0 / weightp=0 / keyint=240 / keyint_min=24 / scenecut=40 / intra_refresh=0 / rc_lookahead=50 / rc=abr / mbtree=1 / bitrate=4000 / ratetol=1.0 / qcomp=0.60 / qpmin=0 / qpmax=69 / qpstep=4 / vbv_maxrate=800000 / vbv_bufsize=800000 / nal_hrd=none / filler=0 / ip_ratio=1.40 / aq=1:1.00
Encoded date : UTC 2024-06-09 00:44:07
Tagged date : UTC 2024-06-09 00:44:07
Color range : Limited
Color primaries : BT.709
Transfer characteristics : BT.709
Matrix coefficients : BT.709
Menus : 4
mdhd_Duration : 6880874
Codec configuration box : avcC

Audio #1
ID : 2
Format : AAC LC
Format/Info : Advanced Audio Codec Low Complexity
Codec ID : mp4a-40-2
Duration : 1 h 54 min
Source duration : 1 h 54 min
Bit rate mode : Constant
Bit rate : 192 kb/s
Channel(s) : 2 channels
Channel layout : L R
Sampling rate : 48.0 kHz
Frame rate : 46.875 FPS (1024 SPF)
Compression mode : Lossy
Stream size : 160 MiB (4%)
Source stream size : 160 MiB (4%)
Title : Stereo
Language : English
Default : Yes
Alternate group : 1
Encoded date : UTC 2024-06-09 00:44:07
Tagged date : UTC 2024-06-09 00:44:07
Menus : 4

Audio #2
ID : 3
Format : AAC LC
Format/Info : Advanced Audio Codec Low Complexity
Codec ID : mp4a-40-2
Duration : 1 h 54 min
Source duration : 1 h 54 min
Bit rate mode : Constant
Bit rate : 192 kb/s
Channel(s) : 2 channels
Channel layout : L R
Sampling rate : 48.0 kHz
Frame rate : 46.875 FPS (1024 SPF)
Compression mode : Lossy
Stream size : 158 MiB (4%)
Source stream size : 158 MiB (4%)
Title : MANDARIN[GY]
Language : Chinese
Default : No
Alternate group : 1
Encoded date : UTC 2024-06-09 00:44:07
Tagged date : UTC 2024-06-09 00:44:07
Menus : 4

Menu
ID : 4
Format : Timed Text
Codec ID : text
Duration : 1 h 54 min
Language : English
Encoded date : UTC 2024-06-09 00:44:07
Tagged date : UTC 2024-06-09 00:44:07
Bit rate mode : CBR
Menu For : 1,2,3
00:00:00.000 : 第 01 章
00:09:36.451 : 第 02 章
00:18:34.864 : 第 03 章
00:30:43.050 : 第 04 章
00:38:47.492 : 第 05 章
00:49:01.939 : 第 06 章
01:00:24.121 : 第 07 章
01:10:13.835 : 第 08 章
01:19:26.971 : 第 09 章
01:28:07.741 : 第 10 章
01:38:40.540 : 第 11 章
01:46:38.726 : 第 12 章
Bit rate mode : Constant


部分资源为软字幕,移动端推荐播放器:MxPlayer,nPlayer,infuse ,其他播放器请自行尝试。

部分资源为软字幕,电脑端推荐播放器:PotPlayer,完美解码,KMPLAYER,其他播放器请自行尝试。

下载端推荐纯BT下载软件:qBittorrent,Bitcomet,uTorrent ,其他下载软件请自行尝试。不支持吸血迅雷。


标签:
pFDScB6.jpg
最新回复 (0)
返回
发新帖

ヾ(・ω・`。)快来领券!